Show Posts

This section allows you to view all posts made by this member. Note that you can only see posts made in areas you currently have access to.

Messages - Uran79

Pages: 1 [2]
16
Собственно из скриншота всё понятно:



Пофиксите пож-та.

Или еще лучше сделайте чтобы можно было сделать уже/шире потянув за край.

17
Есть пара предложении для улучшения Video Splitter:

1).Увеличить размер раскадровки, а то уж больно мелкие кадры получаются , присматриваться приходится, что очень не удобно, иили еще лучше чтобы можно было произвольно увеличить размер/ы кадра потянув за край таймлайна мышкой.

2).Помечать ключевые кадры каким-либо образом на таймлайне

3). При резке/склейки отображать не только прогресс процессора, но и кол-во ошибок при кодировании - при склейки или резке или выводить на экран финальный отчёт по завершении процесса

18
Olga Krovyakova
Благодарю за обстоятельный ответ/ы. Стало немного понятнее, немного :)

Помучаю еще немного:

1).Выбираю файл - формат ts, захожу в настройки, ставлю галку "показать фильтры для текущего формата" и ничего - в смысле - все компрессоры/декомпрессоры исчезают из списка, независимо от того какая точность резки выбрана по умолчанию - gop или кадр.

2). если форсировать выбранные компрессоры/декомпрессоры , нажать ок , то при следующем запуске форсированные кодеки не сохраняются, приходится заново настраивать, это так заудмано или это баг программы ?

3). В списке кодеков для форсирования есть кодеки с названием "Solveig ASF Trimmer и т.п и т.д" , это собственная разработка Solveig или как ?
и некоторые из них можно настроить ? где можно прочитать про их настройку и на что они влияют если их форсировать ?

4). Если форсировать несколько кодеков то программа при резке/склеивании пытается сжать (кодировать) кадр/ы файл/ы самым верхним кодеком и далее по нисходящей вниз, т.е есть приоритет форсированных кодеков.

5).Почему настройка/и " привязывать курсор к предидущему ключевому кадру" и " привязывать маркер к предидущему ключевому кадру" не активны (серым цветом), умный режим галка поставлена.

19
Спасибо.
Еще несколько вопросов:

1). Есть ли ограничение/ия по максимальному размеру разрезаемого/склеиваемого файла/ов и по длительности как при склейке так и по резке ?
2). Что значит настройка " доверять временным меткам сэмплов" и "игнорировать ошибки редактирования" ?
3). На что влияют настройки "Позиционироваться на поля черестрочной развёртки AVC" (включена по умолчанию), "отключить выравнивание по кадрам" , "выравнивание на MPEG TS кадрах", "сохранять MPEG TS PIDs", "Сохранять данные MPEG closed captions при перекодировании", "включить однопоточный режим в eнкодере MPEG2, "Сохранять RTP Hint Tracks в MP4 файлах" ?
4). Обязтаельно ли нужно индексировать файлы до добавления файла на тайм-лайн или индексация просходит автоматом при добавлении файла/ов на тайм-лайн
5). Что за форматы для сохранения фрагментов/файлов ?:
*.h264
*.yuv
и чем их можно открыть после сохранения ?

6). Можно ли добавить для сохранения файлов/фрагментов в других форматах ? : flv , avi mkv чтобы потом не перекодировать дополнительно в сторонних программах в следующий релиз программы ?

20
Quote
Правильно ли я понимаю, что вы сначала сохраняете несколько фрагментов, затем соединяете их используя Менеджер склейки?
в основном делаю так, но бывает и просто вырезаю ненунжные фрагменты и сохраняю весь файл.

21
Доброго времени суток.
После сохранения фрагментов из видео и последующей склейки м/у собой изображение довольно часто рассыпается на артефакты/кубики, выпадает и тормозит.  >:(
Рассыпается и на телевизоре и на компьюторе (i5370k, видеокарта - 560ti)
На исходном видео артефактов нет.

Сохраняю в формат ts.
Версия программы самая последняя
Windows 7 x64.

Вот свойства файла:
General
ID                          : 0 (0x0)
Complete name               : \\PERSONALCLOUD\Seagate (USB)\DISCOVERY\Гений Автодизайна.ts
Format                      : BDAV
Format/Info                 : Blu-ray Video
File size                   : 2.18 GiB
Duration                    : 43 min 43 s
Overall bit rate mode       : Variable
Overall bit rate            : 7 128 kb/s
Maximum Overall bit rate    : 18.7 Mb/s

Video
ID                          : 4113 (0x1011)
Menu ID                     : 1 (0x1)
Format                      : AVC
Format/Info                 : Advanced Video Codec
Format profile              : High@L4
Format settings, CABAC      : Yes
Format settings, ReFrames   : 4 frames
Codec ID                    : 27
Duration                    : 43 min 43 s
Bit rate                    : 6 453 kb/s
Width                       : 1 920 pixels
Height                      : 1 080 pixels
Display aspect ratio        : 16:9
Frame rate                  : 25.000 FPS
Standard                    : Component
Color space                 : YUV
Chroma subsampling          : 4:2:0
Bit depth                   : 8 bits
Scan type                   : Interlaced
Scan type, store method     : Separated fields
Scan order                  : Top Field First
Bits/(Pixel*Frame)          : 0.124
Stream size                 : 1.97 GiB (91%)
Color range                 : Limited
Color primaries             : BT.709
Transfer characteristics    : BT.709
Matrix coefficients         : BT.709

Audio
ID                          : 4352 (0x1100)
Menu ID                     : 1 (0x1)
Format                      : AC-3
Format/Info                 : Audio Coding 3
Mode extension              : CM (complete main)
Format settings, Endianness : Big
Codec ID                    : 129
Duration                    : 43 min 43 s
Bit rate mode               : Constant
Bit rate                    : 384 kb/s
Channel(s)                  : 6 channels
Channel positions           : Front: L C R, Side: L R, LFE
Sampling rate               : 48.0 kHz
Frame rate                  : 31.250 FPS (1536 spf)
Bit depth                   : 16 bits
Compression mode            : Lossy
Stream size                 : 120 MiB (5%)

22
Доброго времени суток.

Как работает функция форсирования кодека/ов и для чего она нужна ?
Чем отличается точность резки по умолчанию : GOP (ключевой кадр) и кадр ?

23
Доброго времени суток.

Обновился до Solveig Splitter 6.1.1625.25.

Программа запускается.
Пытаюсь открыть файл/ы , что-то там шурупит и дальше ничего :( ... тёмный экран , ни раскадровки, ни звуковой волны  :P ? ничего !

Если раньше такое наблюдалось на длинных (больше 5 часов) и больших (больше 15 ГБ или даже меньше) файлах (тоже кстати баг !), то теперь такое наблюдается и на файлах меньшего размера и меньшей продолжительности.

Вот инфа по файлам:

https://drive.google.com/open?id=0Bznq-2wnIecjSnRlSmNVRkE2dWM
https://drive.google.com/open?id=0Bznq-2wnIecjMEJyTUZXYkJUdTg
https://drive.google.com/open?id=0Bznq-2wnIecjSkRDTmFfQmxPQlE


Программу запускаю от админа.
Система - Windows 7 x64 Ultimate.

24
Доброго.
Версия 6.1.1611.7 Business Edition
Зависает после открытия файла - не реагирует ни на одну из кнопок при нажатии, только закрыть :(
Пробовал запускать с админскими правами - тоже самое :(
Система - Windows 7 x64

25
Возможно ли добавление поддержки встроенной в процессоры i5/i7 графики HD2500/4000 и т.п и встроенной в граф. видеокарты Nvidia CUDA или обоих для убыстрения процессоров резки/склейки.
очень пригодилось бы.

26
Доброго.
Еще одно пожелание.

Сделать в режиме раскадровки изменяемый размер кадров, т.е чтобы потянув за край полосы где находятся кадры можно было увеличить размер кадров - чтобы удобнее можно было ориентироваться именно по кадрам, а не плееру , а то больно мелко получается - не удобно.

27
Доброго времени суток.

Имеется версия SolveigMM Video Splitter Business Edition 5.2.1602.24
Пробую открыть файл mkv (H.264) 1920*1080 размером в 56 Гб и продолжительностью примерно в 16 часов.
Очень долго открывается, такое  впечатление что программа зависла :(

Возможно ли как-то убыстрить открытие файла ? может в настройках что-то поставить ?
Имеется ли ограничение в программе на максимальный размер файла и максимальную длительность файла и если есть сколько они составляют.
Аналогичная картина наблюдается и при размере файла в 25 Гб.
Файл открываю с локального диска размером 2 Тб.

Процессор- i5-3570k
Видеокарта - Nvidia 560ti
Оперативная память - 8 Гб DDR3
ОС - Windows 7 x64 Ultimate

Вот инфо по открываемому файлу:
Complete name               : G:\Discovery HD-20160803-192844.mkv
Format                      : Matroska
Format version              : Version 4 / Version 2
File size                   : 51.1 GiB
Duration                    : 16h 53mn
Overall bit rate            : 7 224 Kbps
Encoded date                : UTC 2016-08-03 16:28:44 / UTC 2016-08-03 16:28:44
Writing application         : Lavf56.36.100
Writing library             : Lavf56.36.100 / Lavf56.36.100

Video
ID                          : 2
Format                      : AVC
Format/Info                 : Advanced Video Codec
Format profile              : High@L4
Format settings, CABAC      : Yes
Format settings, ReFrames   : 4 frames
Codec ID                    : V_MPEG4/ISO/AVC
Duration                    : 16h 53mn
Bit rate                    : 6 697 Kbps
Width                       : 1 920 pixels
Height                      : 1 080 pixels
Display aspect ratio        : 16:9
Frame rate mode             : Constant
Frame rate                  : 25.000 fps
Standard                    : Component
Color space                 : YUV
Chroma subsampling          : 4:2:0
Bit depth                   : 8 bits
Scan type                   : Interlaced
Scan type, store method     : Separated fields
Scan order                  : Top Field First
Bits/(Pixel*Frame)          : 0.129
Stream size                 : 47.4 GiB (93%)
Default                     : Yes
Forced                      : No
Color range                 : Limited
Color primaries             : BT.709
Transfer characteristics    : BT.709
Matrix coefficients         : BT.709

Audio
ID                          : 1
Format                      : AC-3
Format/Info                 : Audio Coding 3
Mode extension              : CM (complete main)
Format settings, Endianness : Big
Codec ID                    : A_AC3
Duration                    : 16h 53mn
Bit rate mode               : Constant
Bit rate                    : 384 Kbps
Channel(s)                  : 6 channels
Channel positions           : Front: L C R, Side: L R, LFE
Sampling rate               : 48.0 KHz
Frame rate                  : 31.250 fps (1536 spf)
Bit depth                   : 32 bits
Compression mode            : Lossy
Delay relative to video     : -119ms
Stream size                 : 2.72 GiB (5%)
Language                    : Russian
Default                     : Yes
Forced                      : No

Pages: 1 [2]