Recent Posts

Pages: 1 [2] 3 4 ... 10
11
General Discussion / @pump_upp - best crypto pumps on telegram !
« Last post by johnkavita on Yesterday at 06:33:11 PM »
https://t.me/pump_upp - best crypto pumps on telegram
Make 1000% and more within 1 day, join channel @pump_upp !
12
General Discussion / Fire Watch Guards
« Last post by Firewatchguards on Yesterday at 05:33:34 PM »
what do you do if your fire system doesn't work? you don't want to be in the position where you need to leave your business premises unguarded and at risk of fire. If you are caught out with your system breaking down, then you will need to act quickly to make sure that your premises are kept safe and that your insurance will continue to cover you. For more details : Check this
13
Video Splitter / Re: SolveigMM Video Splitter doesn't recognize webm format
« Last post by grymsfing on Yesterday at 04:59:50 PM »
The video is garbled, as if the program was not reading the webm codec. The file comes from an Icevideo Screen Recorder.
OS: Windows 10 x64.
WHY? - SolveigMultimedia raported this codec is included to the software.
Please help!

----------------
FF Media info about this .webm file:

General
Complete name                            : ..\ice_video_20210412-093036.webm
Format                                   : WebM
Format version                           : Version 2
File size                                : 37.1 MiB
Duration                                 : 31 s 536 ms
Overall bit rate mode                    : Variable
Overall bit rate                         : 9 865 kb/s
Writing application                      : Lavf58.29.100
Writing library                          : Lavf58.29.100

Video
ID                                       : 1
Format                                   : VP8
Codec ID                                 : V_VP8
Duration                                 : 31 s 500 ms
Bit rate                                 : 9 273 kb/s
Width                                    : 1 680 pixels
Height                                   : 1 050 pixels
Display aspect ratio                     : 16:10
Frame rate mode                          : Constant
Frame rate                               : 30.000 FPS
Compression mode                         : Lossy
Bits/(Pixel*Frame)                       : 0.175
Stream size                              : 34.8 MiB (94%)
Default                                  : Yes
Forced                                   : No

Audio
ID                                       : 2
Format                                   : Vorbis
Format settings, Floor                   : 1
Codec ID                                 : A_VORBIS
Duration                                 : 31 s 385 ms
Bit rate mode                            : Variable
Bit rate                                 : 192 kb/s
Channel(s)                               : 2 channels
Sampling rate                            : 44.1 kHz
Compression mode                         : Lossy
Delay relative to video                  : -36 ms
Stream size                              : 736 KiB (2%)
Writing application                      : Lavc58.54.100
Writing library                          : libVorbis (Omnipresent) (20120203 (Omnipresent))
Default                                  : Yes
Forced   



Thanks a lot for help!
14
SolveigMM Media Utilities / SEO продвижение сайта
« Last post by ydahara on Yesterday at 04:51:54 PM »
На сегодняшний день весь рынок – это веб, народ отыскивают там все, что им необходимо, любой товар либо инфу. И согласно статистике, чаще всего, люди делают это через популярные поисковые системы Yandex и Google. Поэтому от того, насколько высока значимость вашего сайта у этих поисковиков, напрямую зависит, увидит ли будущий клиент ваш уникальный продукт в интернете или же нет, ведь долго искать никто не любит. Создать ваш ресурс в идеальное состояние и поднять его в топ, сделает продвижение сайта в твиттере. Наши топовые специалисты проанализируем сайт, оптимизируем и уже через пару месяцев будет виден первый ощутимый результат, роста посещаемости, который можно пронаблюдать наглядно по отчетам. Свяжитесь с нами, и вы не разочаруетесь.


15
If you are enrolled in a law degree and facing issues in completing academic papers then feel free to connect with us, We are a team of professional law assignment writers in Ireland who have massive experience in dealing with complicated law assignment papers. Legal assignment required a lot of knowledge and time. Students are always look for online assistance in their law assignments and hire an expert for this task. We offer affordable price range so that you may easily avail our services and make your assignment submission hassle free. 
16
General Discussion / Re: Hypercam3
« Last post by richardcostello3910 on Yesterday at 12:57:37 PM »
Before his match, Joe Burrow should put on these Joe Burrow Seinfeld Sweatpants. His picture quickly gained popularity on social media. and his sweatpants became popular among his fans and fashionistas.
Pages: 1 [2] 3 4 ... 10