Show Posts

This section allows you to view all posts made by this member. Note that you can only see posts made in areas you currently have access to.

Topics - Uran79

Pages: [1]
1
Доброго времени суток.

Подскажите пож-та как пользоваться списками пакетной обработки ? - т.е файлы списков задач (формат xtl) , формат cue и т.д. ?

Допустим у меня есть файл в txt с таким содержимым:

[\\KEENETIC_GIGA\Transcend (внешний ЖД)\Discovery\Discovery HD-20180806-232409.ts]
00:01:49=109
00:07:34=454
00:20:49=1249
00:25:54=1554
00:34:09=2049
00:43:49=2629
00:47:29=2849
01:02:19=3739
01:05:59=3959
01:18:39=4719
01:23:24=5004
01:30:59=5459
01:31:34=5494

Можно ли как-то его преобразовать чтобы автоматом вырезало, обозначив конец и начало например рекламы или как-то преобразовать в файл пакетной обработки (резки или склейки или резки и склейки) ?

Спасибо.


2
Программа не очень хорошо переваривает mkv файлы , особенно большие по размеру и длительности, даже после индексирования, создания звуковой волны и раскадровки , при попытке передвинуть маркер дальше по таймлайну к следующим кадрам зависает намертво.

3
Отчего зависит скорость индексирования файлов ?

Можно ли как-то в настройках её увеличить ?

4
Не очень понял.

Какие кодеки/энкодеры и декодеры использует Video Splitter при просмотре и резке и склейке ? : установленные в системе (сторонние) или же устанавливаемые вместе с программой Video Splitter

5
Не очень понял такой момент.

Добавил файл на тайм-лайн , обозначил начало и конец рекламы в нескольких местах , нажал кнопку вырезать. Вырезало на тайм-лайне.

Жму "сохранить файл как" - в моей логике он должен сразу сохранять файл - минус вырезанные на тайм-лайне фрагменты, однако получается что это не так, два раза нужно жать сохранить т.е получается вроде как один файл и второй файл

Что я делаю не так ?

Да, файл - TS сохраняю в ts и если судить по длительности процесса то он его перекодирует (создаёт) заново, а не сохраняет как есть без перекодирования - просто без тех фрагментов ( реклама) которая мне не нужна.

6
Собственно из скриншота всё понятно:



Пофиксите пож-та.

Или еще лучше сделайте чтобы можно было сделать уже/шире потянув за край.

7
Есть пара предложении для улучшения Video Splitter:

1).Увеличить размер раскадровки, а то уж больно мелкие кадры получаются , присматриваться приходится, что очень не удобно, иили еще лучше чтобы можно было произвольно увеличить размер/ы кадра потянув за край таймлайна мышкой.

2).Помечать ключевые кадры каким-либо образом на таймлайне

3). При резке/склейки отображать не только прогресс процессора, но и кол-во ошибок при кодировании - при склейки или резке или выводить на экран финальный отчёт по завершении процесса

8
Доброго времени суток.
После сохранения фрагментов из видео и последующей склейки м/у собой изображение довольно часто рассыпается на артефакты/кубики, выпадает и тормозит.  >:(
Рассыпается и на телевизоре и на компьюторе (i5370k, видеокарта - 560ti)
На исходном видео артефактов нет.

Сохраняю в формат ts.
Версия программы самая последняя
Windows 7 x64.

Вот свойства файла:
General
ID                          : 0 (0x0)
Complete name               : \\PERSONALCLOUD\Seagate (USB)\DISCOVERY\Гений Автодизайна.ts
Format                      : BDAV
Format/Info                 : Blu-ray Video
File size                   : 2.18 GiB
Duration                    : 43 min 43 s
Overall bit rate mode       : Variable
Overall bit rate            : 7 128 kb/s
Maximum Overall bit rate    : 18.7 Mb/s

Video
ID                          : 4113 (0x1011)
Menu ID                     : 1 (0x1)
Format                      : AVC
Format/Info                 : Advanced Video Codec
Format profile              : High@L4
Format settings, CABAC      : Yes
Format settings, ReFrames   : 4 frames
Codec ID                    : 27
Duration                    : 43 min 43 s
Bit rate                    : 6 453 kb/s
Width                       : 1 920 pixels
Height                      : 1 080 pixels
Display aspect ratio        : 16:9
Frame rate                  : 25.000 FPS
Standard                    : Component
Color space                 : YUV
Chroma subsampling          : 4:2:0
Bit depth                   : 8 bits
Scan type                   : Interlaced
Scan type, store method     : Separated fields
Scan order                  : Top Field First
Bits/(Pixel*Frame)          : 0.124
Stream size                 : 1.97 GiB (91%)
Color range                 : Limited
Color primaries             : BT.709
Transfer characteristics    : BT.709
Matrix coefficients         : BT.709

Audio
ID                          : 4352 (0x1100)
Menu ID                     : 1 (0x1)
Format                      : AC-3
Format/Info                 : Audio Coding 3
Mode extension              : CM (complete main)
Format settings, Endianness : Big
Codec ID                    : 129
Duration                    : 43 min 43 s
Bit rate mode               : Constant
Bit rate                    : 384 kb/s
Channel(s)                  : 6 channels
Channel positions           : Front: L C R, Side: L R, LFE
Sampling rate               : 48.0 kHz
Frame rate                  : 31.250 FPS (1536 spf)
Bit depth                   : 16 bits
Compression mode            : Lossy
Stream size                 : 120 MiB (5%)

9
Доброго времени суток.

Как работает функция форсирования кодека/ов и для чего она нужна ?
Чем отличается точность резки по умолчанию : GOP (ключевой кадр) и кадр ?

10
Доброго времени суток.

Обновился до Solveig Splitter 6.1.1625.25.

Программа запускается.
Пытаюсь открыть файл/ы , что-то там шурупит и дальше ничего :( ... тёмный экран , ни раскадровки, ни звуковой волны  :P ? ничего !

Если раньше такое наблюдалось на длинных (больше 5 часов) и больших (больше 15 ГБ или даже меньше) файлах (тоже кстати баг !), то теперь такое наблюдается и на файлах меньшего размера и меньшей продолжительности.

Вот инфа по файлам:

https://drive.google.com/open?id=0Bznq-2wnIecjSnRlSmNVRkE2dWM
https://drive.google.com/open?id=0Bznq-2wnIecjMEJyTUZXYkJUdTg
https://drive.google.com/open?id=0Bznq-2wnIecjSkRDTmFfQmxPQlE


Программу запускаю от админа.
Система - Windows 7 x64 Ultimate.

11
Доброго.
Версия 6.1.1611.7 Business Edition
Зависает после открытия файла - не реагирует ни на одну из кнопок при нажатии, только закрыть :(
Пробовал запускать с админскими правами - тоже самое :(
Система - Windows 7 x64

12
Возможно ли добавление поддержки встроенной в процессоры i5/i7 графики HD2500/4000 и т.п и встроенной в граф. видеокарты Nvidia CUDA или обоих для убыстрения процессоров резки/склейки.
очень пригодилось бы.

13
Доброго времени суток.

Имеется версия SolveigMM Video Splitter Business Edition 5.2.1602.24
Пробую открыть файл mkv (H.264) 1920*1080 размером в 56 Гб и продолжительностью примерно в 16 часов.
Очень долго открывается, такое  впечатление что программа зависла :(

Возможно ли как-то убыстрить открытие файла ? может в настройках что-то поставить ?
Имеется ли ограничение в программе на максимальный размер файла и максимальную длительность файла и если есть сколько они составляют.
Аналогичная картина наблюдается и при размере файла в 25 Гб.
Файл открываю с локального диска размером 2 Тб.

Процессор- i5-3570k
Видеокарта - Nvidia 560ti
Оперативная память - 8 Гб DDR3
ОС - Windows 7 x64 Ultimate

Вот инфо по открываемому файлу:
Complete name               : G:\Discovery HD-20160803-192844.mkv
Format                      : Matroska
Format version              : Version 4 / Version 2
File size                   : 51.1 GiB
Duration                    : 16h 53mn
Overall bit rate            : 7 224 Kbps
Encoded date                : UTC 2016-08-03 16:28:44 / UTC 2016-08-03 16:28:44
Writing application         : Lavf56.36.100
Writing library             : Lavf56.36.100 / Lavf56.36.100

Video
ID                          : 2
Format                      : AVC
Format/Info                 : Advanced Video Codec
Format profile              : High@L4
Format settings, CABAC      : Yes
Format settings, ReFrames   : 4 frames
Codec ID                    : V_MPEG4/ISO/AVC
Duration                    : 16h 53mn
Bit rate                    : 6 697 Kbps
Width                       : 1 920 pixels
Height                      : 1 080 pixels
Display aspect ratio        : 16:9
Frame rate mode             : Constant
Frame rate                  : 25.000 fps
Standard                    : Component
Color space                 : YUV
Chroma subsampling          : 4:2:0
Bit depth                   : 8 bits
Scan type                   : Interlaced
Scan type, store method     : Separated fields
Scan order                  : Top Field First
Bits/(Pixel*Frame)          : 0.129
Stream size                 : 47.4 GiB (93%)
Default                     : Yes
Forced                      : No
Color range                 : Limited
Color primaries             : BT.709
Transfer characteristics    : BT.709
Matrix coefficients         : BT.709

Audio
ID                          : 1
Format                      : AC-3
Format/Info                 : Audio Coding 3
Mode extension              : CM (complete main)
Format settings, Endianness : Big
Codec ID                    : A_AC3
Duration                    : 16h 53mn
Bit rate mode               : Constant
Bit rate                    : 384 Kbps
Channel(s)                  : 6 channels
Channel positions           : Front: L C R, Side: L R, LFE
Sampling rate               : 48.0 KHz
Frame rate                  : 31.250 fps (1536 spf)
Bit depth                   : 32 bits
Compression mode            : Lossy
Delay relative to video     : -119ms
Stream size                 : 2.72 GiB (5%)
Language                    : Russian
Default                     : Yes
Forced                      : No

Pages: [1]