Author Topic: Открытие в SolveigMM Video Splitter очень большого файла (размер б  (Read 3522 times)

Offline Olga Krovyakova

  • Users
  • *
  • Posts: 976
    • View Profile
Здравствуйте, Uran79!

Спасибо за Ваше сообщение.
Ограничений на размер открываемого файла нет.
Смотрим, тестируем.
Попробуйте, пожалуйста, пока эту 5ю версию, более свежую.
 
http://www.solveigmm.com/download/SolveigMM_Video_Splitter_Home_Edition_5_2_Beta.exe
Regards,
Olga Krovyakova
Solveig Multimedia

Offline Uran79

  • Users
  • *
  • Posts: 27
    • View Profile
Доброго времени суток.

Имеется версия SolveigMM Video Splitter Business Edition 5.2.1602.24
Пробую открыть файл mkv (H.264) 1920*1080 размером в 56 Гб и продолжительностью примерно в 16 часов.
Очень долго открывается, такое  впечатление что программа зависла :(

Возможно ли как-то убыстрить открытие файла ? может в настройках что-то поставить ?
Имеется ли ограничение в программе на максимальный размер файла и максимальную длительность файла и если есть сколько они составляют.
Аналогичная картина наблюдается и при размере файла в 25 Гб.
Файл открываю с локального диска размером 2 Тб.

Процессор- i5-3570k
Видеокарта - Nvidia 560ti
Оперативная память - 8 Гб DDR3
ОС - Windows 7 x64 Ultimate

Вот инфо по открываемому файлу:
Complete name               : G:\Discovery HD-20160803-192844.mkv
Format                      : Matroska
Format version              : Version 4 / Version 2
File size                   : 51.1 GiB
Duration                    : 16h 53mn
Overall bit rate            : 7 224 Kbps
Encoded date                : UTC 2016-08-03 16:28:44 / UTC 2016-08-03 16:28:44
Writing application         : Lavf56.36.100
Writing library             : Lavf56.36.100 / Lavf56.36.100

Video
ID                          : 2
Format                      : AVC
Format/Info                 : Advanced Video Codec
Format profile              : High@L4
Format settings, CABAC      : Yes
Format settings, ReFrames   : 4 frames
Codec ID                    : V_MPEG4/ISO/AVC
Duration                    : 16h 53mn
Bit rate                    : 6 697 Kbps
Width                       : 1 920 pixels
Height                      : 1 080 pixels
Display aspect ratio        : 16:9
Frame rate mode             : Constant
Frame rate                  : 25.000 fps
Standard                    : Component
Color space                 : YUV
Chroma subsampling          : 4:2:0
Bit depth                   : 8 bits
Scan type                   : Interlaced
Scan type, store method     : Separated fields
Scan order                  : Top Field First
Bits/(Pixel*Frame)          : 0.129
Stream size                 : 47.4 GiB (93%)
Default                     : Yes
Forced                      : No
Color range                 : Limited
Color primaries             : BT.709
Transfer characteristics    : BT.709
Matrix coefficients         : BT.709

Audio
ID                          : 1
Format                      : AC-3
Format/Info                 : Audio Coding 3
Mode extension              : CM (complete main)
Format settings, Endianness : Big
Codec ID                    : A_AC3
Duration                    : 16h 53mn
Bit rate mode               : Constant
Bit rate                    : 384 Kbps
Channel(s)                  : 6 channels
Channel positions           : Front: L C R, Side: L R, LFE
Sampling rate               : 48.0 KHz
Frame rate                  : 31.250 fps (1536 spf)
Bit depth                   : 32 bits
Compression mode            : Lossy
Delay relative to video     : -119ms
Stream size                 : 2.72 GiB (5%)
Language                    : Russian
Default                     : Yes
Forced                      : No
« Last Edit: August 09, 2016, 01:12:15 AM by Uran79 »