Author Topic: Жуткие тормоза GUI Windows во время создания изображений ка  (Read 4919 times)

Offline Olga Krovyakova

  • Users
  • *
  • Posts: 976
    • View Profile
Здравствуйте, Ramzes!

Спасибо за ваш ответ.
Мы обсудим с нашей командой о необходимости и возможности добавить такую опцию в будущие выпуски программы.
Если такая опция появится, напишем в этой теме.
Regards,
Olga Krovyakova
Solveig Multimedia

Offline Ramzes

  • Users
  • *
  • Posts: 34
    • View Profile
Ольга,
вот то, что нашлось у меня, все жутко тормозит компьютер при создании картинок кадров:

6.1.1707.19 Business Edition
6.1.1707.17 Business Edition Beta
6.1.1707.12 Business Edition Beta
6.1.1707.6 Business Edition
6.1.1706.30 Business Edition
6.1.1705.18 Business Edition

   5.2.1606.22 Business Edition - жутких тормозов нет.

Если понизить приоритет сплиттера хотя бы до "ниже среднего" - ситуация резко улучшается.

Архивирование любых файлов Винраром с максимальной степенью сжатия идёт гладко и без тормозов - можно комфортно работать на компьютере в процессе архивации.
« Last Edit: August 18, 2017, 06:41:16 PM by Ramzes »

Offline Olga Krovyakova

  • Users
  • *
  • Posts: 976
    • View Profile
Здравствуйте, Ramzes!

Спасибо за ваш ответ.

Если проблема повториться у вас с файлами иного содержимого, пришлите, нам пожалуйста, образец для проверки на нашей стороне.

Вы писали, что проблема есть на всех последних версиях. Перечислите, пожалуйста, номера этих версий, какие последние вы используете?
На каких-то версиях Video Splitter у вас не было данной проблемы с системой? Если да, уточните, номера этих версий.

Попробуйте выполнить следующий тест: запустите какую-нибудь ресурсоемкую программу, например, заархивируйте видео файл подобного размера каким-нибудь архиватором. Будет ли наблюдаться зависание и торможение системы?
« Last Edit: August 17, 2017, 04:27:46 PM by Olga Krovyakova »
Regards,
Olga Krovyakova
Solveig Multimedia

Offline Ramzes

  • Users
  • *
  • Posts: 34
    • View Profile
Ольга,
1) диск С: у меня на быстром SSD, свободного места предостаточно;
2) видеофайлы лежат на локальном диске - относительно новом, т.е. достаточно быстром;
Выложить файлы не могу - они для взрослых. :)

Offline Olga Krovyakova

  • Users
  • *
  • Posts: 976
    • View Profile
Добрый день, Ramzes!

Спасибо за ответ.
Проверьте, пожалуйста, следующее:

1) Не заполнен ли у вас диск С.
2) С какого устройства/папки вы открываете исходный файл, возможно это устройство или сетевая папка, при открытии с которой файл медленно считывается.

Загрузите, пожалуйста, этот файл на Google drive или другой удобный вам сервис передачи файлов, если возможно.


Regards,
Olga Krovyakova
Solveig Multimedia

Offline Ramzes

  • Users
  • *
  • Posts: 34
    • View Profile
Ольга, у меня Windows 7 x64 Максимальная, 8 GB RAM, AMD FX-4350 Quod-Core Processor (4,2 GHz).
Тормоза при добавлении файла в медиотеку или на таймлайн, когда происходит отображение изображений кадров видеофайла.
Файлы, например, такого типа:
Общее
Формат : MPEG-4
Профиль формата : Base Media
Идентификатор кодека : isom (isom/iso2/avc1/mp41)
Размер файла : 3,93 Гбайт
Продолжительность : 45 м. 46 с.
Общий поток : 12,3 Мбит/сек
Программа кодирования : Lavf56.40.101

Видео
Идентификатор : 2
Формат : AVC
Формат/Информация : Advanced Video Codec
Профиль формата : High@L4.2
Параметр CABAC формата : Да
Параметр RefFrames формата : 4 кадра
Идентификатор кодека : avc1
Идентификатор кодека/Информация : Advanced Video Coding
Продолжительность : 45 м. 45 с.
Битрейт : 12,0 Мбит/сек
Ширина : 1920 пикселей
Высота : 1080 пикселей
Соотношение сторон : 16:9
Режим частоты кадров : Постоянный
Частота кадров : 50,000 кадров/сек
Цветовое пространство : YUV
Субдискретизация насыщенности : 4:2:0
Битовая глубина : 8 бит
Тип развёртки : Прогрессивная
Бит/(Пиксели*Кадры) : 0.116
Размер потока : 3,84 Гбайт (98%)
Библиотека кодирования : x264 core 148 r2643 5c65704
Настройки программы : cabac=1 / ref=3 / deblock=1:0:0 / yse=0x3:0x113 / me=hex / subme=7 / psy=1 / psy_rd=1.00:0.00 / mixed_ref=1 / me_range=16 / chroma_me=1 / trellis=1 / 8x8dct=1 / cqm=0 / deadzone=21,11 / fast_pskip=1 / chroma_qp_offset=-2 / threads=6 / lookahead_threads=1 / sliced_threads=0 / nr=0 / decimate=1 / interlaced=0 / bluray_compat=0 / constrained_intra=0 / bframes=3 / b_pyramid=2 / b_adapt=1 / b_bias=0 / direct=1 / weightb=1 / open_gop=0 / weightp=2 / keyint=250 / keyint_min=25 / scenecut=40 / intra_refresh=0 / rc_lookahead=40 / rc=abr / mbtree=1 / bitrate=12000 / ratetol=1.0 / qcomp=0.60 / qpmin=0 / qpmax=69 / qpstep=4 / ip_ratio=1.40 / aq=1:1.00

Аудио
Идентификатор : 1
Формат : AAC
Формат/Информация : Advanced Audio Codec
Профиль формата : LC
Идентификатор кодека : 40
Продолжительность : 45 м. 46 с.
Duration_LastFrame : -12 мс.
Вид битрейта : Постоянный
Битрейт : 265 Кбит/сек
Кы : 2 ка
Расположение ков : Front: L R
Частота : 44,1 КГц
Частота кадров : 43,066 кадра/сек (1024 SPF)
Метод сжатия : С потерями
Размер потока : 88,0 Мбайт (2%)
Default : Да
AlternateGroup/String : 1

Offline Olga Krovyakova

  • Users
  • *
  • Posts: 976
    • View Profile
Здравствуйте, Ramzes!

Спасибо за ваше сообщение!

Уточните, пожалуйста, файлы какого формата, видео/аудио содержания (кодеки) и размера вы открываете?
Это происходит у вас при открытии данных файлов на таймлайне или на другой операции?
Какая у вас операционная система и ее разрядность?
Regards,
Olga Krovyakova
Solveig Multimedia

Offline Ramzes

  • Users
  • *
  • Posts: 34
    • View Profile
Уважаемые разработчики,
на всех последних версиях SolveigMM Video Splitter наблюдаются ацкие тормоза графического интерфейса Windows, когда программа создаёт изображения кадров на таймлайне или в окне библиотеки - даже курсор мыши не двигается по несколько секунд, а если и двигается, то рывками и с жуткими задержками.
Нельзя ли в настройках программы предусмотреть возможность запуска с пониженным приоритетом? ::)
« Last Edit: August 16, 2017, 10:53:59 PM by Ramzes »