Author Topic: MKV+MKV ошибка hr=0x80040207 из-за чего? Не пойму, всё подогнал.  (Read 10655 times)
  • Administrator
  • Users
  • *****
  • Posts: 1116
    • View Profile
Здравствуйте feniks000,

Спасибо за сообщение.

Не могли бы вы уточнить какую версию программы Вы используете?

Возникнет ли проблема на версии 4, доступной по ссылке:

http://www.solveigmm.com/download/SolveigMM_Video_Splitter_Home_Edition_4_0_Beta.exe

Не могли бы вы прислать нам исходные файлы, которые вы пытались склеить? Можно загрузить их, например, на dropbox.com.
Quote
Я 40 секундный ролик подгонял под 47 минутный..
Уточните, пожалуйста, что имелось ввиду? Насколько я поняла, Вы пытались соединить файлы для получения 42 минутного ролика (такая продолжительность файла указана в спецификации).

Спасибо.
Regards,
Olga Krovyakova
Solveig Multimedia

  • Users
  • *
  • Posts: 1
    • View Profile
Скрин: http://s57.radikal.ru/i158/1401/4e/51fdb06cb556.png

Я 40 секундный ролик подгонял под 47 минутный..

Это 40 секундный ролик:
Code: [Select]
Общее
Уникальный идентификатор                 : 52291665960397293762769926405443679299 (0x2757022F1EDBBD5A4BDC8C3B8571F443)
Полное имя                               : C:\Users\Hapur\Desktop\intro vk.dcmarvel.mkv
Формат                                   : Matroska
Версия формата                           : Version 2
Размер файла                             : 1,00 Мбайт
Продолжительность                        : 4 с. 896 мс.
Общий поток                              : 1715 Кбит/сек
Программа кодирования                    : Lavf54.63.104
Библиотека кодирования                   : Lavf54.63.104

Видео
Идентификатор                            : 1
Формат                                   : AVC
Формат/Информация                        : Advanced Video Codec
Профиль формата                          : Main@L3.1
Параметр CABAC формата                   : Да
Параметр ReFrames формата                : 1 кадр
Идентификатор кодека                     : V_MPEG4/ISO/AVC
Продолжительность                        : 4 с. 880 мс.
Битрейт                                  : 1457 Кбит/сек
Номинальный битрейт                      : 2155 Кбит/сек
Ширина                                   : 1280 пикселей
Высота                                   : 720 пикселей
Соотношение сторон                       : 16:9
Режим частоты кадров                     : Постоянный
Частота кадров                           : 23,976 кадра/сек
Цветовое пространство                    : YUV
Субдискретизация насыщенности            : 4:2:0
Битовая глубина                          : 8 бит
Тип развёртки                            : Прогрессивная
Бит/(Пиксели*Кадры)                      : 0.066
Размер потока                            : 868 Кбайт (85%)
Библиотека кодирования                   : x264 core 129
Настройки программы                      : cabac=1 / ref=1 / deblock=1:0:0 / analyse=0x1:0x131 / me=dia / subme=2 / psy=1 / psy_rd=1.00:0.00 / mixed_ref=0 / me_range=16 / chroma_me=1 / trellis=0 / 8x8dct=0 / cqm=0 / deadzone=21,11 / fast_pskip=1 / chroma_qp_offset=0 / threads=2 / lookahead_threads=1 / sliced_threads=0 / nr=0 / decimate=1 / interlaced=0 / bluray_compat=0 / constrained_intra=0 / bframes=0 / weightp=2 / keyint=250 / keyint_min=25 / scenecut=40 / intra_refresh=0 / rc_lookahead=40 / rc=abr / mbtree=1 / bitrate=2155 / ratetol=1.0 / qcomp=0.60 / qpmin=10 / qpmax=51 / qpstep=4 / ip_ratio=1.41 / aq=1:1.00
Default                                  : Да
Forced                                   : Нет

Аудио
Идентификатор                            : 2
Формат                                   : AC-3
Формат/Информация                        : Audio Coding 3
Расширение режима                        : CM (complete main)
Параметр Endianness формата              : Big
Идентификатор кодека                     : A_AC3
Продолжительность                        : 4 с. 896 мс.
Вид битрейта                             : Постоянный
Битрейт                                  : 224 Кбит/сек
Каналы                                   : 2 канала
Расположение каналов                     : Front: L R
Частота                                  : 48,0 КГц
Битовая глубина                          : 16 бит
Метод сжатия                             : С потерями
Размер потока                            : 134 Кбайт (13%)
Default                                  : Да
Forced                                   : Нет


Это 47 минутый ролик:
Code: [Select]
Общее
Уникальный идентификатор                 : 325406604943152111646196378453271637362 (0xF4CF084F0BADA5A46B93C29ACA83ED72)
Полное имя                               : C:\Users\Hapur\Desktop\marvels.agents.of.s.h.i.e.l.d.s01e12.720p.hdtv.x264-2hd.mkv
Формат                                   : Matroska
Версия формата                           : Version 4 / Version 2
Размер файла                             : 794 Мбайт
Продолжительность                        : 42 м.
Общий поток                              : 2590 Кбит/сек
Дата кодирования                         : UTC 2014-01-15 02:16:52
Программа кодирования                    : mkvmerge v6.0.0 ('Coming Up For Air') built on Jan 20 2013 09:40:09
Библиотека кодирования                   : libebml v1.3.0 + libmatroska v1.4.0

Видео
Идентификатор                            : 1
Формат                                   : AVC
Формат/Информация                        : Advanced Video Codec
Профиль формата                          : High@L4.1
Параметр CABAC формата                   : Да
Параметр ReFrames формата                : 5 кадров
Идентификатор кодека                     : V_MPEG4/ISO/AVC
Продолжительность                        : 42 м.
Битрейт                                  : 2155 Кбит/сек
Ширина                                   : 1280 пикселей
Высота                                   : 720 пикселей
Соотношение сторон                       : 16:9
Режим частоты кадров                     : Постоянный
Частота кадров                           : 23,976 кадра/сек
Цветовое пространство                    : YUV
Субдискретизация насыщенности            : 4:2:0
Битовая глубина                          : 8 бит
Тип развёртки                            : Прогрессивная
Бит/(Пиксели*Кадры)                      : 0.098
Размер потока                            : 661 Мбайт (83%)
Библиотека кодирования                   : x264 core 140 r2377 1ca7bb9
Настройки программы                      : cabac=1 / ref=5 / deblock=1:0:0 / analyse=0x3:0x113 / me=umh / subme=8 / psy=1 / psy_rd=1.00:0.00 / mixed_ref=1 / me_range=16 / chroma_me=1 / trellis=1 / 8x8dct=1 / cqm=0 / deadzone=21,11 / fast_pskip=1 / chroma_qp_offset=-2 / threads=12 / lookahead_threads=2 / sliced_threads=0 / nr=0 / decimate=1 / interlaced=0 / bluray_compat=0 / constrained_intra=0 / bframes=3 / b_pyramid=2 / b_adapt=2 / b_bias=0 / direct=3 / weightb=1 / open_gop=0 / weightp=2 / keyint=250 / keyint_min=23 / scenecut=40 / intra_refresh=0 / rc_lookahead=50 / rc=crf / mbtree=1 / crf=18.0 / qcomp=0.60 / qpmin=0 / qpmax=69 / qpstep=4 / ip_ratio=1.40 / aq=1:1.00
Язык                                     : English
Default                                  : Да
Forced                                   : Нет
Коэффициенты матрицы                     : BT.709

Аудио
Идентификатор                            : 2
Формат                                   : AC-3
Формат/Информация                        : Audio Coding 3
Расширение режима                        : CM (complete main)
Параметр Endianness формата              : Big
Идентификатор кодека                     : A_AC3
Продолжительность                        : 42 м.
Вид битрейта                             : Постоянный
Битрейт                                  : 384 Кбит/сек
Каналы                                   : 6 каналов
Расположение каналов                     : Front: L C R, Side: L R, LFE
Частота                                  : 48,0 КГц
Битовая глубина                          : 16 бит
Метод сжатия                             : С потерями
Размер потока                            : 118 Мбайт (15%)
Default                                  : Да
Forced                                   : Нет