Author Topic: При резке перекодиурет аудидорогу.  (Read 10110 times)
  • Administrator
  • Users
  • *****
  • Posts: 1127
    • View Profile
« Reply #4 on: November 07, 2014, 02:25:15 AM »
Здравствуйте TATOSHCKA,

Спасибо Вам за информацию и файлы.

У исходного файла, так же как и у полученного сохраняется битрейт 160kbps, это видно по информации MediaInfo, формат аудиодорожки также не меняется в полученном файле, остается mp2. Скажите, пожалуйста, какой программой Вы смотрите данные о файлах?

В настоящее время программа действительно умеет сохранять только одну из нескольких аудиодорожек. Именно поэтому нужную аудиодорожку следует выбирать в меню "Управление" перед редактированием.
Возможно, мы добавим возможность сохранять несколько дорожек в следующие выпуски.


Regards,
Olga Krovyakova
Solveig Multimedia

  • Users
  • *
  • Posts: 2
    • View Profile
« Reply #3 on: November 06, 2014, 02:22:18 AM »
Да. Я использую SolveigMM Video Splitter :

Файл на входе имеет формат:

Code: [Select]
Video: MPEG4 Video (H264) 1920x1080 25fps [V: h264 main L4.0, yuv420p, 1920x1080]
Audio: MPEG Audio 48000Hz stereo 139kbps [A: mp2, 48000 Hz, stereo, 139 kb/s]
Audio: MPEG Audio 48000Hz stereo 139kbps [A: mp2, 48000 Hz, stereo, 139 kb/s]

Code: [Select]
General
ID                             : 0 (0x0)
Complete name                  : E:\Zap2\Fox Life HD\05 Ноябрь - 19.52.03 - Анатомия страсти (Grey's Anatomy) 16-я серия -  Ес....ts
Format                         : MPEG-TS
File size                      : 58.1 MiB
Duration                       : 1mn 1s
Overall bit rate mode          : Variable
Overall bit rate               : 7 908 Kbps

Video
ID                             : 141 (0x8D)
Menu ID                        : 13002 (0x32CA)
Format                         : AVC
Format/Info                    : Advanced Video Codec
Format profile                 : Main@L4.0
Format settings, CABAC         : Yes
Format settings, ReFrames      : 4 frames
Codec ID                       : 27
Duration                       : 1mn 0s
Bit rate                       : 7 194 Kbps
Width                          : 1 920 pixels
Height                         : 1 080 pixels
Display aspect ratio           : 16:9
Frame rate                     : 25.000 fps
Standard                       : Component
Color space                    : YUV
Chroma subsampling             : 4:2:0
Bit depth                      : 8 bits
Scan type                      : MBAFF
Bits/(Pixel*Frame)             : 0.139
Stream size                    : 52.2 MiB (90%)
Color primaries                : BT.709
Transfer characteristics       : BT.709
Matrix coefficients            : BT.709

Audio #1
ID                             : 144 (0x90)
Menu ID                        : 13002 (0x32CA)
Format                         : MPEG Audio
Format version                 : Version 1
Format profile                 : Layer 2
Mode                           : Joint stereo
Codec ID                       : 4
Duration                       : 1mn 1s
Bit rate mode                  : Constant
Bit rate                       : 160 Kbps
Channel(s)                     : 2 channels
Sampling rate                  : 48.0 KHz
Compression mode               : Lossy
Delay relative to video        : -740ms
Stream size                    : 1.17 MiB (2%)

Audio #2
ID                             : 145 (0x91)
Menu ID                        : 13002 (0x32CA)
Format                         : MPEG Audio
Format version                 : Version 1
Format profile                 : Layer 2
Mode                           : Joint stereo
Codec ID                       : 4
Duration                       : 1mn 1s
Bit rate mode                  : Constant
Bit rate                       : 160 Kbps
Channel(s)                     : 2 channels
Sampling rate                  : 48.0 KHz
Compression mode               : Lossy
Delay relative to video        : -740ms
Stream size                    : 1.17 MiB (2%)

Скриншот из управления:

https://yadi.sk/i/hj-QtW7GcWPU4

Обрезаем, на выходе имеем:

Code: [Select]
Video: MPEG4 Video (H264) 1920x1080 25fps [V: h264 main L4.0, yuv420p, 1920x1080]
Audio: MP3 48000Hz stereo 160kbps [A: mp3, 48000 Hz, stereo, 160 kb/s]]

Code: [Select]
General
ID                             : 0 (0x0)
Complete name                  : C:\Users\anton\Desktop\002.ts
Format                         : MPEG-TS
File size                      : 25.2 MiB
Duration                       : 26s 813ms
Overall bit rate mode          : Variable
Overall bit rate               : 7 876 Kbps

Video
ID                             : 301 (0x12D)
Menu ID                        : 1 (0x1)
Format                         : AVC
Format/Info                    : Advanced Video Codec
Format profile                 : Main@L4.0
Format settings, CABAC         : Yes
Format settings, ReFrames      : 4 frames
Format settings, GOP           : M=3, N=12
Codec ID                       : 27
Duration                       : 26s 840ms
Bit rate                       : 7 325 Kbps
Width                          : 1 920 pixels
Height                         : 1 080 pixels
Display aspect ratio           : 16:9
Frame rate                     : 25.000 fps
Standard                       : Component
Color space                    : YUV
Chroma subsampling             : 4:2:0
Bit depth                      : 8 bits
Scan type                      : MBAFF
Bits/(Pixel*Frame)             : 0.141
Stream size                    : 23.4 MiB (93%)
Color primaries                : BT.709
Transfer characteristics       : BT.709
Matrix coefficients            : BT.709

Audio
ID                             : 302 (0x12E)
Menu ID                        : 1 (0x1)
Format                         : MPEG Audio
Format version                 : Version 1
Format profile                 : Layer 2
Mode                           : Joint stereo
Codec ID                       : 3
Duration                       : 26s 808ms
Bit rate mode                  : Constant
Bit rate                       : 160 Kbps
Channel(s)                     : 2 channels
Sampling rate                  : 48.0 KHz
Compression mode               : Lossy
Stream size                    : 524 KiB (2%)

Во первых SolveigMM Video Splitter перекодировал дорогу. Это видно по битрейду был 139 стал 160.
Во вторых, он может сохранять сразу обе дороги.

Мне нужно, что бы программа резала видео, и перекодировала лишь те кусочки, где идет разрез (что она вообшем и делает с видео). А аудидороги, не трогала только вырезала синхронно с видео. Она мало, того что перекодирует, так либо дорога а, либо дорога б. А сразу с 2 дорогами не может?

Исходное видео - https://yadi.sk/i/ORW4_GL2cWQUw
Выходное видео - https://yadi.sk/i/Gg0se847cWQVn



  • Administrator
  • Users
  • *****
  • Posts: 1127
    • View Profile
« Reply #2 on: November 05, 2014, 10:33:37 PM »
Здравствуйте TATOSHCKA,

Спасибо за сообщение.

Уточните, пожалуйста, какую наша программу вы имеете ввиду.

Скорее всего при редактировании была выбрана для сохранения другая аудиодорожка, MP3 вместо MP2.

В случае, если был выбран Video Splitter, пожалуйста, посмотрите перед редактированием какая аудиодорожка выбрана в меню "Управление".

Если аудио имеет переменный битрейт, то после резки его значение может измениться.
Regards,
Olga Krovyakova
Solveig Multimedia

  • Users
  • *
  • Posts: 2
    • View Profile
« Reply #1 on: November 03, 2014, 06:40:56 PM »
Вообщем, решил попробывать данный продукт для резки видео:
На входе имеем:
Video: MPEG4 Video (H264) 1920x1080 25fps [V: h264 main L4.0, yuv420p, 1920x1080]
Audio: MPEG Audio 48000Hz stereo 160kbps [A: mp2, 48000 Hz, stereo, 160 kb/s]

На выходе:

Video: MPEG4 Video (H264) 1920x1080 25fps [V: h264 main L4.0, yuv420p, 1920x1080]
Audio: MP3 48000Hz stereo 192kbps [A: mp3, 48000 Hz, stereo, 192 kb/s]

Не могу найти настройку, что бы он не трогал формат аудиодорожки, т.е. что бы на выходе были те же форматы, что и на входе.