Author Topic: Unable to open a file  (Read 10451 times)
  • Administrator
  • Users
  • *****
  • Posts: 1132
    • View Profile
« Reply #2 on: June 05, 2012, 12:10:21 PM »
Hello gamecrusader,

Thank you for your post.

Your file should be opened in Video Splitter.
Could you please send us it (you can upload it e.g. to filedropper.com) for we could check it on our end?
Thank you in advance.


Regards,
Olga Krovyakova
Solveig Multimedia

  • Users
  • *
  • Posts: 1
    • View Profile
« Reply #1 on: June 05, 2012, 05:43:35 AM »
This is my first time using Video Splitter (v3.0.1204.17) and sadly it won’t even open the first file I wanted to split. The error is: “Source file is not supported or damaged”

I can confirm the file is fine. Plays fine and can be opened in OTHER (and cut) video splitting apps, but I would prefer to use Video Splitter.

Here is the MediaInfo of the file in question (it is a Blu-ray converted):

Format                                   : Matroska
Format version                           : Version 2
File size                                : 1.62 GiB
Duration                                 : 1h 2mn
Overall bit rate                         : 3 692 Kbps
Writing application                      : HandBrake 4708svn
Writing library                          : libmkv 0.6.5

Video
ID                                       : 1
Format                                   : AVC
Format/Info                              : Advanced Video Codec
Format profile                           : High@L5.1
Format settings, CABAC                   : Yes
Format settings, ReFrames                : 16 frames
Codec ID                                 : V_MPEG4/ISO/AVC
Duration                                 : 1h 2mn
Bit rate                                 : 2 109 Kbps
Width                                    : 1 920 pixels
Height                                   : 1 072 pixels
Display aspect ratio                     : 16:9
Original display aspect ratio            : 16:9
Frame rate                               : 23.976 fps
Color space                              : YUV
Chroma subsampling                       : 4:2:0
Bit depth                                : 8 bits
Scan type                                : Progressive
Bits/(Pixel*Frame)                       : 0.043
Stream size                              : 946 MiB (57%)
Writing library                          : x264 core 125
Encoding settings                        : cabac=1 / ref=16 / deblock=1:1:1 / analyse=0x3:0x133 / me=umh / subme=10 / psy=1 / psy_rd=0.40:0.00 / mixed_ref=1 / me_range=24 / chroma_me=1 / trellis=2 / 8x8dct=1 / cqm=0 / deadzone=21,11 / fast_pskip=1 / chroma_qp_offset=-2 / threads=12 / lookahead_threads=2 / sliced_threads=0 / nr=0 / decimate=1 / interlaced=0 / bluray_compat=0 / constrained_intra=0 / bframes=8 / b_pyramid=2 / b_adapt=2 / b_bias=0 / direct=3 / weightb=1 / open_gop=0 / weightp=2 / keyint=240 / keyint_min=24 / scenecut=40 / intra_refresh=0 / rc_lookahead=60 / rc=crf / mbtree=1 / crf=21.0 / qcomp=0.60 / qpmin=3 / qpmax=69 / qpstep=4 / ip_ratio=1.40 / aq=1:0.60
Language                                 : English
Default                                  : Yes
Forced                                   : No
Color primaries                          : BT.709-5, BT.1361, IEC 61966-2-4, SMPTE RP177
Transfer characteristics                 : BT.709-5, BT.1361
Matrix coefficients                      : BT.709-5, BT.1361, IEC 61966-2-4 709, SMPTE RP177

Audio
ID                                       : 2
Format                                   : DTS
Format/Info                              : Digital Theater Systems
Codec ID                                 : A_DTS
Duration                                 : 1h 2mn
Bit rate mode                            : Constant
Bit rate                                 : 1 510 Kbps
Channel(s)                               : 6 channels
Channel positions                        : Front: L C R, Side: L R, LFE
Sampling rate                            : 48.0 KHz
Bit depth                                : 24 bits
Compression mode                         : Lossy
Stream size                              : 677 MiB (41%)
Language                                 : English
Default                                  : Yes
Forced                                   : No

Menu
00:00:00.000                             : Chapter 1
00:00:58.933                             : Chapter 2
00:11:16.175                             : Chapter 3
00:23:55.308                             : Chapter 4
00:24:32.929                             : Chapter 5
00:37:25.701                             : Chapter 6
00:49:39.601                             : Chapter 7