Author Topic: Вылет Video Splitter при открытии файлов, записанных OBS  (Read 4435 times)

Offline Maxim.Sakhankov

  • Users
  • *
  • Posts: 293
    • View Profile
Здравствуйте hobotxxl,
Пожалуйста, пришлите образец записанного файла, на котором наблюдается проблема нам в тех. поддержку или мне в личном сообщении с указанием ссылки на эту тему. Для отправки фалов вы можете использовать любое файловое хранилище - Cloud Mail.ru, Google Drive итд.

Offline hobotxxl

  • Users
  • *
  • Posts: 1
    • View Profile
Версия программы: SolveigMM_Video_Splitter_Home_Edition_x64_7_3_1906_10.exe

При открытии файла (записан в OBS, данные по файлу ниже) прога вылетает с надписью:

Quote
...has stopped working
[Check...and close]
[Close]


Problem details
Problem signature:
  Problem Event Name:    APPCRASH
  Application Name:    SMMVSplitter_Home_x64.exe
  Application Version:    7.3.1906.6
  Application Timestamp:    5cf90a88
  Fault Module Name:    SMMVSplitter_Home_x64.exe
  Fault Module Version:    7.3.1906.6
  Fault Module Timestamp:    5cf90a88
  Exception Code:    c0000005
  Exception Offset:    000000000028c218
  OS Version:    6.1.7601.2.1.0.256.28
  Locale ID:    1049
  Additional Information 1:    de23
  Additional Information 2:    de23ae28927312b7a4ea9bff8966f017
  Additional Information 3:    3f36
  Additional Information 4:    3f364714e6b51588f052bd7562dbc6bb

Read our privacy statement online:
  http://go.microsoft.com/fwlink/?linkid=104288&clcid=0x0409

If the online privacy statement is not available, please read our privacy statement offline:
  C:\Windows\system32\en-US\erofflps.txt



Вот данные файла из MediaInfo:
Quote
General
Complete name                            : G:\xCapt\2019-09-08_15-10-47.mp4
Format                                   : MPEG-4
Format profile                           : Base Media
Codec ID                                 : isom
File size                                : 1 006 MiB
Duration                                 : 13mn 47s
Overall bit rate mode                    : Variable
Overall bit rate                         : 10.2 Mbps
Writing application                      : Lavf57.84.100

Video
ID                                       : 1
Format                                   : AVC
Format/Info                              : Advanced Video Codec
Format profile                           : High@L4.0
Format settings, CABAC                   : Yes
Format settings, ReFrames                : 4 frames
Codec ID                                 : avc1
Codec ID/Info                            : Advanced Video Coding
Duration                                 : 13mn 47s
Bit rate                                 : 10 000 Kbps
Width                                    : 1 600 pixels
Height                                   : 1 200 pixels
Display aspect ratio                     : 4:3
Frame rate mode                          : Constant
Frame rate                               : 30.000 fps
Color space                              : YUV
Chroma subsampling                       : 4:2:0
Bit depth                                : 8 bits
Scan type                                : Progressive
Bits/(Pixel*Frame)                       : 0.174
Stream size                              : 986 MiB (98%)
Writing library                          : x264 core 148 r2762 90a61ec
Encoding settings                        : cabac=1 / ref=1 / deblock=1:0:0 / analyse=0x3:0x113 / me=hex / subme=2 / psy=1 / psy_rd=1.00:0.00 / mixed_ref=0 / me_range=16 / chroma_me=1 / trellis=0 / 8x8dct=1 / cqm=0 / deadzone=21,11 / fast_pskip=1 / chroma_qp_offset=0 / threads=6 / lookahead_threads=2 / sliced_threads=0 / nr=0 / decimate=1 / interlaced=0 / bluray_compat=0 / constrained_intra=0 / bframes=3 / b_pyramid=2 / b_adapt=1 / b_bias=0 / direct=1 / weightb=1 / open_gop=0 / weightp=1 / keyint=250 / keyint_min=25 / scenecut=40 / intra_refresh=0 / rc_lookahead=10 / rc=cbr / mbtree=1 / bitrate=10000 / ratetol=1.0 / qcomp=0.60 / qpmin=0 / qpmax=69 / qpstep=4 / vbv_maxrate=10000 / vbv_bufsize=10000 / nal_hrd=none / filler=1 / ip_ratio=1.40 / aq=1:1.00

Audio
ID                                       : 2
Format                                   : AAC
Format/Info                              : Advanced Audio Codec
Format profile                           : LC
Codec ID                                 : 40
Duration                                 : 13mn 46s
Bit rate mode                            : Variable
Bit rate                                 : 198 Kbps
Maximum bit rate                         : 320 Kbps
Channel count                            : 2 channels
Channel positions                        : Front: L R
Sampling rate                            : 44.1 KHz
Compression mode                         : Lossy
Delay relative to video                  : 67ms
Stream size                              : 19.5 MiB (2%)


Такое происходит и в установленной и в портативной версиях, на весь экран и в окне.
Конфиг: i5-2400/4Gb/Radeon5870(Cypress)/Win7 64 SP1

Куда бежать, чё делать, Э?
« Last Edit: November 12, 2019, 02:38:14 AM by hobotxxl »