Recent Posts

Pages: [1] 2 3 ... 10
1
Video Splitter / Problems with subtitle lines longer than the cut point.
« Last post by Staxx on Yesterday at 01:49:27 AM »
I just tried the free version and I wonder if you could address some these issues before I decide whether to buy. The first one by far the biggest problem I found, and it's also the main reason I haven't bought the program yet, since I'm looking for something that can work with subtitles without causing problems.


Subtitles often cause problems with cut segments (x265, mkv). Since everything I edit has subtitles, it happens A LOT. So I troubleshooted this myself and found out that if a subtitle line starts earler than the cut point, it usually causes the output to look glitchy or makes the program freeze at "Now Splitting The Sequence" part.

To easily reproduce, make an SRT subtitle (just save as .txt and rename to .srt) with an entry like this:

Code: [Select]
1
00:00:05,000 --> 00:00:10,000
Blah-blah-blah.

Merge it into any mkv video, and try cutting that video at 6 seconds (again, notice that the subtitle line starts at 5 sec). The program will either get stuck at 100% of "Now Splitting The Sequence...", or it'll output a segment with an extra second of buggy/empty video footage.

The easiest solution for this would probably be to demux and re-edit the subtitles to make sure that none of them go beyond the cut points. So in this case, 00:00:05,000 --> 00:00:10,000 would become 00:00:06,000 --> 00:00:10,000, and so on.


Another issue I noticed is more like a missing feature than a bug. It's that you can't set up Select Streams in the Media panel before adding the file to the timeline.

The reason it's important is because the program seems to have issues with some streams. Some of them take long to load and make the program freeze for quite a while before you can toggle them off in Select Streams. Some of them are unsupported or don't even seem to load, like some TrueHD Atmos streams I tested. Would be great if I could disable the unsupported audio streams and unnecessary subtitles, as well as set up which streams to cut and use for preview BEFORE I drag the file from the media panel and loaded it into the timeline.
2
General Discussion / Re: Christmas Special 2014 - 30% discount for all products!
« Last post by mjdfd33 on February 03, 2023, 05:34:42 PM »
Bathrooms and kitchens are known as 'wet regions'. These frequently take the maximum time to easy. That's why they must be first inside the order you smooth your private home post renovation cleaning. Once you've carried out step 1 and 3, dirt the whole thing after which get down to paintings to your bathrooms and kitchen.
3
Video Splitter / Re: Unable to render video (VP90)
« Last post by mjdfd33 on February 03, 2023, 05:09:05 PM »
A U-shaped kitchen is a commonplace layout that functions built-in cabinetry, counter tops and home equipment on three sides, with a fourth side left open or featuring a cased commencing or entry door of mississauga kitchen company. In larger areas with enough width, U-fashioned kitchens are regularly geared up with a freestanding island or seating.
4
General Discussion / Glasses help colorblind people distinguish colors accurately.
« Last post by alijen on February 03, 2023, 03:40:58 PM »
In fact, the average person will be able to perceive from 1 to 7 million different colors. Besides, people with color blindness syndrome can only perceive between 10,000 and 100,000 colors.
Color blindness is also known as a chromosomal disorder. At the same time, it is manifested by the inability of the eye to distinguish the colors of objects, such as green, red, or blue blindness, or when the colors are mixed together.
The birth of the colorblind Enchroma
Currently, there are many people in the world suffering from  color blind test.
Many years ago, Donald McPherson was a man who made goggles for laser surgery. Moreover, while talking with his friend, McPherson discovered his glasses have the ability to help people with color blindness see colors.
5
General Discussion / Re: About video cutter
« Last post by tonyadams on February 03, 2023, 02:12:13 PM »
Absolutely yes. Besides the video cutter, you also receive a video splitter and a video joiner. io games
6
Video Splitter / Re: SolveigMM Video Splitter doesn't recognize webm format
« Last post by grymsfing on February 01, 2023, 04:59:50 PM »
The video is garbled, as if the program was not reading the webm codec. The file comes from an Icevideo Screen Recorder.
OS: Windows 10 x64.
WHY? - SolveigMultimedia raported this codec is included to the software.
Please help!

----------------
FF Media info about this .webm file:

General
Complete name                            : ..\ice_video_20210412-093036.webm
Format                                   : WebM
Format version                           : Version 2
File size                                : 37.1 MiB
Duration                                 : 31 s 536 ms
Overall bit rate mode                    : Variable
Overall bit rate                         : 9 865 kb/s
Writing application                      : Lavf58.29.100
Writing library                          : Lavf58.29.100

Video
ID                                       : 1
Format                                   : VP8
Codec ID                                 : V_VP8
Duration                                 : 31 s 500 ms
Bit rate                                 : 9 273 kb/s
Width                                    : 1 680 pixels
Height                                   : 1 050 pixels
Display aspect ratio                     : 16:10
Frame rate mode                          : Constant
Frame rate                               : 30.000 FPS
Compression mode                         : Lossy
Bits/(Pixel*Frame)                       : 0.175
Stream size                              : 34.8 MiB (94%)
Default                                  : Yes
Forced                                   : No

Audio
ID                                       : 2
Format                                   : Vorbis
Format settings, Floor                   : 1
Codec ID                                 : A_VORBIS
Duration                                 : 31 s 385 ms
Bit rate mode                            : Variable
Bit rate                                 : 192 kb/s
Channel(s)                               : 2 channels
Sampling rate                            : 44.1 kHz
Compression mode                         : Lossy
Delay relative to video                  : -36 ms
Stream size                              : 736 KiB (2%)
Writing application                      : Lavc58.54.100
Writing library                          : libVorbis (Omnipresent) (20120203 (Omnipresent))
Default                                  : Yes
Forced   



Thanks a lot for help!
Pages: [1] 2 3 ... 10