Author Topic: AVI audio sync issues - Video Splitter v4  (Read 30884 times)
  • Administrator
  • Users
  • *****
  • Posts: 1109
    • View Profile
« Reply #20 on: April 13, 2015, 11:51:13 PM »
Hello CharlesC,

Please try to use version 4.5 beta of Video Splitter. It should fix issues you have reported.

http://www.solveigmm.com/download/SolveigMM_Video_Splitter_Home_Edition_4_5_Beta.exe

Please let us know how it works at your end.
Regards,
Olga Krovyakova
Solveig Multimedia

  • Users
  • *
  • Posts: 13
    • View Profile
« Reply #19 on: April 11, 2015, 07:38:26 AM »
Hello Olga,
I see that there is a version release now that appears to have some fixes and/or functionality for avi files.  Main points highlighted below. Most of the problem avi files did have mp3 audio.

Maybe this will sort out some of the editing problems I've experienced and reported since May 2014.  As you know from the history below, I've not been able to use the program successfully from day 1 for the avi files that I bought it for.

Could you please upgrade my v4 license to v5?  At this point I'm not particularly keen to purchase an upgrade at 50% discount.  My email address is in my profile.

Thank you.



Fixes (Trimming):
Audio out of sync on output AVI files with MP3 audio
Slow motion of video playback and partly no sound on trimmed AVI file with MP3 audio

« Last Edit: April 11, 2015, 08:12:35 AM by CharlesC »

  • Administrator
  • Users
  • *****
  • Posts: 1109
    • View Profile
« Reply #18 on: January 21, 2015, 02:52:38 AM »
Hello CharlesC,

Please excuse us for fixing the bug so long.

I believe that will post the update or have the news regarding issues you have reported on the next week.

Thank you for your patience.
Regards,
Olga Krovyakova
Solveig Multimedia

  • Users
  • *
  • Posts: 13
    • View Profile
« Reply #17 on: January 20, 2015, 09:06:41 AM »
Olga, the issues detailed below are to my best knowledge unresolved. The first problem on some older avi files was identified in May last year, the second in June last year.

With both 'problem' files,  the old open source program VirtualDub (versions of which have been around for a long, long time) had no trouble in editing the files correctly.

I purchased SolveigMM Video Splitter specifically because it said it could handle avi files, and gave the impression that it could do this easily.

Can you please give me an update on these apparently unresolved issues?

Thanks

  • Administrator
  • Users
  • *****
  • Posts: 1109
    • View Profile
« Reply #16 on: August 01, 2014, 10:55:56 PM »
Dear CharlesC,

Please excuse for possible inconveniences.

We still work on issues with AVI files you have reported.  We hope to have the solution in near future.

As soon as there will be any news, we'll post here.
Regards,
Olga Krovyakova
Solveig Multimedia

  • Users
  • *
  • Posts: 13
    • View Profile
« Reply #15 on: July 30, 2014, 08:29:51 AM »
Olga, I must admit I am disappointed with my experience in using SolveigMM.  I purchased it a couple of months ago to handle what I thought would be straightforward tasks in editing files, in particular avi ones.

I have tried to use it for two main tasks so far, detailed below, and in both cases it has had problems.  As mentioned, when I went back to using the open source program  VirtualDub, which has been around for many, many years, it successfully did the job.

I purchased the program in May, it is now almost the end of July.  To my knowledge, neither of the problems has been fixed yet.  Can you please give a status update of where the situation currently is at?  I thought avi files were one of the file types that SolveigMultimedia specialised in.

  • Users
  • *
  • Posts: 13
    • View Profile
« Reply #14 on: July 04, 2014, 03:52:04 PM »
Thanks Olga!

  • Administrator
  • Users
  • *****
  • Posts: 1109
    • View Profile
« Reply #13 on: July 03, 2014, 10:26:07 PM »
Hello CharlesC,

Thank you a lot for file you have uploaded.

I've reproduced the same issue with slow motion of video and no sound at the end of the payback.

As soon as there will be any news regarding fixing of this bug, I'll post here.
Regards,
Olga Krovyakova
Solveig Multimedia

  • Users
  • *
  • Posts: 13
    • View Profile
« Reply #12 on: July 03, 2014, 07:25:11 PM »
Thanks Olga.  The link to the file is below.  Please let me know when you have it, and I'll then remove it again.
I tried the new Beta on it, no difference.

To confirm what the problem was. When I save the file out after setting the audio to the 2nd choice of English (the whole file selected, no trimming at all), the resulting file ends up with video and English audio, correct.  But the video seems to play slowly.  The audio sounds like it is at the correct speed.  Strange.

Anyway, hopefully you will see the problem for yourself.


https://drive.google.com/folderview?id=0B67BLFD8ItM5RXBxNExobEZfSGc&usp=sharing



  • Administrator
  • Users
  • *****
  • Posts: 1109
    • View Profile
« Reply #11 on: June 25, 2014, 11:20:40 PM »
Dear CharlesC,

Thank you for your post.

Have you already uploaded the example file for we could check it at our end?

Could you please let us know what Video Splitter version you use?
The latest beta is available here.
Regards,
Olga Krovyakova
Solveig Multimedia

  • Users
  • *
  • Posts: 13
    • View Profile
« Reply #10 on: June 21, 2014, 03:18:36 PM »
Well I have another problem that can most likely be added to your 'to do' list.

I have 100+ avi files that need their primary audio stream changed to the secondary one.  Open the file, select Audio 2, Save As avi.  SolveigMM produces a final avi that appears to have the video running almost in slow motion.  The audio sounds like it is OK.  Then towards the end of the file the audio appears to not be there.

Again, using VirtualDub the same steps are handled with ease.  Select Audio 2, Video 'Direct Stream Copy', a final file is produced quickly.

I'll upload an example of one of the files (from a TV Series) and maybe you can test it.  I don't know if there are any special settings that need to be used in SolveigMM, I can try those if needed.


File details
General
Complete name                          Series_The_Pilot_(rus,eng).avi
Format                                   : AVI
Format/Info                              : Audio Video Interleave
File size                                : 344 MiB
Duration                                 : 25mn 34s
Overall bit rate                         : 1 877 Kbps
Movie name                               : #1.01 - The Pilot
Movie name/Country                       : ÑØÀ
Encoded by                               :
Genre                                    : êîìåäèéíûé / âîåííûé
Law rating                               : NR (íå ïðîõîäèëî îöåíêó)
Writing application                      : GordianKnot + Adobe Audition
Original source medium                   : äèñê DVD
Original source form                     : öèôðîâîå âèäåî
Original source form/Name                : ñåðèàë
Copyright                                :
IMIT                                     : Çâóê ëþáåçíî ïðåäîñòàâëåí CCA

Video
ID                                       : 0
Format                                   : MPEG-4 Visual
Format settings, BVOP                    : 1
Format settings, QPel                    : No
Format settings, GMC                     : No warppoints
Format settings, Matrix                  : Default (H.263)
Muxing mode                              : Packed bitstream
Codec ID                                 : DX50
Codec ID/Hint                            : DivX 5
Duration                                 : 25mn 34s
Bit rate                                 : 1 667 Kbps
Width                                    : 512 pixels
Height                                   : 384 pixels
Display aspect ratio                     : 4:3
Frame rate                               : 23.976 fps
Color space                              : YUV
Chroma subsampling                       : 4:2:0
Bit depth                                : 8 bits
Scan type                                : Progressive
Compression mode                         : Lossy
Bits/(Pixel*Frame)                       : 0.354
Stream size                              : 305 MiB (89%)
Writing library                          : DivX 5.1.1 (Maupiti) (UTC 2003-11-19)

Audio #1
ID                                       : 1
Format                                   : MPEG Audio
Format version                           : Version 1
Format profile                           : Layer 3
Codec ID                                 : 55
Codec ID/Hint                            : MP3
Duration                                 : 25mn 34s
Bit rate mode                            : Constant
Bit rate                                 : 64.0 Kbps
Channel(s)                               : 1 channel
Sampling rate                            : 32.0 KHz
Compression mode                         : Lossy
Stream size                              : 11.7 MiB (3%)
Alignment                                : Aligned on interleaves
Interleave, duration                     : 42 ms (1.00 video frame)
Interleave, preload duration             : 504 ms
Writing library                          : LAME3.96
Encoding settings                        : -m m -V 4 -q 2 -lowpass 16 -b 64
Language                                 : Ðóññêèé + Àíãëèéñêèé

Audio #2
ID                                       : 2
Format                                   : MPEG Audio
Format version                           : Version 1
Format profile                           : Layer 3
Codec ID                                 : 55
Codec ID/Hint                            : MP3
Duration                                 : 25mn 34s
Bit rate mode                            : Constant
Bit rate                                 : 64.0 Kbps
Channel(s)                               : 1 channel
Sampling rate                            : 32.0 KHz
Compression mode                         : Lossy
Stream size                              : 11.7 MiB (3%)
Alignment                                : Aligned on interleaves
Interleave, duration                     : 42 ms (1.00 video frame)
Interleave, preload duration             : 504 ms
Writing library                          : LAME3.90.3

Audio #3
ID                                       : 3
Format                                   : MPEG Audio
Format version                           : Version 1
Format profile                           : Layer 3
Codec ID                                 : 55
Codec ID/Hint                            : MP3
Duration                                 : 25mn 34s
Bit rate mode                            : Constant
Bit rate                                 : 64.0 Kbps
Channel(s)                               : 1 channel
Sampling rate                            : 32.0 KHz
Compression mode                         : Lossy
Stream size                              : 11.7 MiB (3%)
Alignment                                : Aligned on interleaves
Interleave, duration                     : 42 ms (1.00 video frame)
Interleave, preload duration             : 504 ms
Writing library                          : LAME3.90.3

  • Administrator
  • Users
  • *****
  • Posts: 1109
    • View Profile
« Reply #9 on: June 19, 2014, 07:27:26 PM »
Hello CharlesC,

Thank you for your post.
This bug is in our "to do" list for fixing.
As soon as there will be any news on this, I'll write here.
Regards,
Olga Krovyakova
Solveig Multimedia

  • Users
  • *
  • Posts: 13
    • View Profile
« Reply #8 on: June 19, 2014, 09:04:19 AM »
I was wondering if there was an update on this? 

I have some further editing to do and would like to use SolveigMM to do it, rather than keep using VirtualDub.

  • Users
  • *
  • Posts: 13
    • View Profile
« Reply #7 on: May 25, 2014, 07:28:37 AM »
Great, thanks.

I'll check back from time to time.

  • Administrator
  • Users
  • *****
  • Posts: 1109
    • View Profile
« Reply #6 on: May 20, 2014, 09:06:53 PM »
Hello CharlesC,

Thank you a lot for files, I've got them.

I have checked the editing and also see the async.

We'll try to fix it in near future.
Please keep an eye on this thread, I'll post here as soon as will get the update.

Have a nice day.
Regards,
Olga Krovyakova
Solveig Multimedia